General
Complete name                            : InfernalRestraints presents Marina – PUNISHED CUNT – 20.11.2020.mp4
Format                                   : MPEG-4
Format profile                           : Base Media / Version 2
Codec ID                                 : mp42 (mp41/mp42/isom)
File size                                : 1.11 GiB
Duration                                 : 00:54:46
Overall bit rate mode                    : Variable
Overall bit rate                         : 2 891 kb/s
Movie name                               : marina
Movie_More                               : This video is about marina
Performer                                : otimac01
Encoded date                             : UTC 2020-11-17 02:34:16
Tagged date                              : UTC 2020-11-17 02:40:44
FileExtension_Invalid                    : braw mov mp4 m4v m4a m4b m4p m4r 3ga 3gpa 3gpp 3gp 3gpp2 3g2 k3g jpm jpx mqv ismv isma ismt f4a f4b f4v

Video
ID                                       : 2
Format                                   : AVC
Format/Info                              : Advanced Video Codec
Format profile                           : Main@L3
Format settings                          : CABAC / 2 Ref Frames
Format settings, CABAC                   : Yes
Format settings, Reference frames        : 2 frames
Format settings, GOP                     : M=1, N=96
Codec ID                                 : avc1
Codec ID/Info                            : Advanced Video Coding
Duration                                 : 00:54:46
Bit rate mode                            : Variable
Bit rate                                 : 2 761 kb/s
Maximum bit rate                         : 768 kb/s
Width                                    : 850 pixels
Height                                   : 478 pixels
Display aspect ratio                     : 16:9
Frame rate mode                          : Constant
Frame rate                               : 23.976 (24000/1001) FPS
Color space                              : YUV
Chroma subsampling                       : 4:2:0
Bit depth                                : 8 bits
Scan type                                : Progressive
Bits/(Pixel*Frame)                       : 0.283
Stream size                              : 1.06 GiB (95%)
Title                                    : Core Media Video
Encoded date                             : UTC 2020-11-17 02:34:16
Tagged date                              : UTC 2020-11-17 02:40:44
Color range                              : Limited
Color primaries                          : BT.601 NTSC
Transfer characteristics                 : BT.709
Matrix coefficients                      : BT.601
Codec configuration box                  : avcC

Audio
ID                                       : 1
Format                                   : AAC LC
Format/Info                              : Advanced Audio Codec Low Complexity
Codec ID                                 : mp4a-40-2
Duration                                 : 00:54:46
Source duration                          : 54 min 46 s
Bit rate mode                            : Constant
Bit rate                                 : 128 kb/s
Channel(s)                               : 2 channels
Channel layout                           : L R
Sampling rate                            : 44.1 kHz
Frame rate                               : 43.066 FPS (1024 SPF)
Compression mode                         : Lossy
Stream size                              : 50.2 MiB (4%)
Source stream size                       : 50.2 MiB (4%)
Title                                    : Core Media Audio
Language                                 : English
Encoded date                             : UTC 2020-11-17 02:34:16
Tagged date                              : UTC 2020-11-17 02:40:44

General Complete name : InfernalRestraints presents Marina – PUNISHED CUNT – 20.11.2020.mp4 Format : MPEG-4 Format profile : Base Media / Version 2 Codec ID : mp42 (mp41/mp42/isom) File size : 1.11 GiB Duration : 00:54:46 Overall bit rate mode : Variable Overall bit rate : 2 891 kb/s Movie name : marina Movie_More : This video is about marina Performer : otimac01 Encoded date : UTC 2020-11-17 02:34:16 Tagged date : UTC 2020-11-17 02:40:44 FileExtension_Invalid : braw mov mp4 m4v m4a m4b m4p m4r 3ga 3gpa 3gpp 3gp 3gpp2 3g2 k3g jpm jpx mqv ismv isma ismt f4a f4b f4v Video ID : 2 Format : AVC Format/Info : Advanced Video Codec Format profile : [email protected] Format settings : CABAC / 2 Ref Frames Format settings, CABAC : Yes Format settings, Reference frames : 2 frames Format settings, GOP : M=1, N=96 Codec ID : avc1 Codec ID/Info : Advanced Video Coding Duration : 00:54:46 Bit rate mode : Variable Bit rate : 2 761 kb/s Maximum bit rate : 768 kb/s Width : 850 pixels Height : 478 pixels Display aspect ratio : 16:9 Frame rate mode : Constant Frame rate : 23.976 (24000/1001) FPS Color space : YUV Chroma subsampling : 4:2:0 Bit depth : 8 bits Scan type : Progressive Bits/(Pixel*Frame) : 0.283 Stream size : 1.06 GiB (95%) Title : Core Media Video Encoded date : UTC 2020-11-17 02:34:16 Tagged date : UTC 2020-11-17 02:40:44 Color range : Limited Color primaries : BT.601 NTSC Transfer characteristics : BT.709 Matrix coefficients : BT.601 Codec configuration box : avcC Audio ID : 1 Format : AAC LC Format/Info : Advanced Audio Codec Low Complexity Codec ID : mp4a-40-2 Duration : 00:54:46 Source duration : 54 min 46 s Bit rate mode : Constant Bit rate : 128 kb/s Channel(s) : 2 channels Channel layout : L R Sampling rate : 44.1 kHz Frame rate : 43.066 FPS (1024 SPF) Compression mode : Lossy Stream size : 50.2 MiB (4%) Source stream size : 50.2 MiB (4%) Title : Core Media Audio Language : English Encoded date : UTC 2020-11-17 02:34:16 Tagged date : UTC 2020-11-17 02:40:44